Advanced Search

АвторТема: Русланова Лидия - Воспоминания. Песни. LP Мелодия М60 45393 007 (1983)(320 kbps)  (Прочитано 306 раз)

Июль 28, 2020, 23:03:46
Прочитано 306 раз

Оффлайн alod382

  • VIP

  • *****

  • Пользователь №: 571348

  • Сообщений: 727

  • Сказал спасибо: 5
  • Получил спасибо: 429

  • Дата регистрации:
    07-12-2015


  • Дата последнего визита:
    Октябрь 21, 2020, 22:17:53


  • Пол: Мужской





Исполнитель: Лидия Русланова
Альбом: Воспоминания. Песни. LP Мелодия М60 45393 007
Год: 1983
Жанр: Фольклор
Время звучания: 00:40:10
Битрейт: 320 kbps
Размер архива: 107,4 Mb (+3% на восстановление)


Содержание:

1. Вниз по Волге-реке
Государственный русский народный оркестр им. Н.Осипова.Дирижёр П.Куликов. 1954 г.
2. Комарики
Ансамбль народных инструментов п/уА.Семёнова. 1947 г.
3. Уж ты, сад
Государственный русский народный оркестр им. Н.Осипова.Дирижёр П.Куликов. 1953 г.
4. Саратовские припевки
В.Максаков, саратовская гармоника. 1954 г.
5. На улице дождик
Государственный русский народный оркестр им. Н.Осипова.Дирижёр П.Куликов. 1954 г.
6. Жигули
В.Максаков, саратовская гармоника. 1954 г.
7. Меж высоких хлебов, сл. Н. Некрасова
Секстет домр п/у Н.Некрасова
8. Расти, моя калинушка
Трио баянистов: И.Марьин, Б.Шашин, А.Марьин 1941 г.
9. Валенки
А.Комлев, баян. 1934 г.

Запись воспоминаний 1970 г.

Рип в виде двух частей.
Оцифровка пластинки из моей коллекции.

Залито на mail.ru и Мегу:

--- Скрытая информация. Для того чтобы получить к ней доступ необходимо зарегистрироваться и поблагодарить автора сообщения нажатием на кнопку "Спасибо" вверху сообщения ---
Друзья называли меня грампластинкой, но я не винил их.

Июль 29, 2020, 23:12:41
Ответ #1

Оффлайн im fam

  • Пользователь

  • *

  • Пользователь №: 18826

  • Сообщений: 66

  • Сказал спасибо: 41
  • Получил спасибо: 2

  • Дата регистрации:
    03-08-2006


  • Дата последнего визита:
    Сегодня в 00:18:58


Можно WAV, ещё если сохранился?
Для желающих
REM DATE 1983
REM COMMENT Мелодия М60 45393 007 (LP, оцифровка [alod382])
PERFORMER "Лидия Русланова"
TITLE "Воспоминания. Песни LP"
FILE "01. Сторона 1.flac" WAVE
  TRACK 01 AUDIO
    TITLE "Вниз по Волге-реке"
    INDEX 01 00:00:00
  TRACK 02 AUDIO
    TITLE "Комарики"
    INDEX 01 04:32:03
  TRACK 03 AUDIO
    TITLE "Уж ты, сад"
    INDEX 01 07:16:53
  TRACK 04 AUDIO
    TITLE "Саратовские припевки"
    INDEX 01 10:32:73
  TRACK 05 AUDIO
    TITLE "На улице дождик"
    INDEX 01 14:16:18
FILE "02. Сторона 2.flac" WAVE
  TRACK 06 AUDIO
    TITLE "Жигули"
    INDEX 01 00:00:00
  TRACK 07 AUDIO
    TITLE "Меж высоких хлебов"
    INDEX 01 03:26:20
  TRACK 08 AUDIO
    TITLE "Расти, моя калинушка"
    INDEX 01 12:38:37
  TRACK 09 AUDIO
    TITLE "Валенки"
    INDEX 01 17:34:55

Июль 30, 2020, 21:19:25
Ответ #2

Оффлайн alod382

  • VIP

  • *****

  • Пользователь №: 571348

  • Сообщений: 727

  • Сказал спасибо: 5
  • Получил спасибо: 429

  • Дата регистрации:
    07-12-2015


  • Дата последнего визита:
    Октябрь 21, 2020, 22:17:53


  • Пол: Мужской

Сохранился.
Архив без пароля (417 МБ)

--- Скрытая информация. Для того чтобы получить к ней доступ необходимо зарегистрироваться и поблагодарить автора сообщения нажатием на кнопку "Спасибо" вверху сообщения ---
Друзья называли меня грампластинкой, но я не винил их.


 


* Новинки раздела Винил Советский


http://images.vfl.ru/ii/1602619870/48286767/31930356.jpg

Мария Кодряну ‎– Мария Кодряну(1975)

Автор: ur7
Дата: 22.10.2020
Просмотров: 41
Ответов: 0


https://b.radikal.ru/b40/2010/12/c480b2c625da.jpg

33Д 034273 «Мой адрес - Советский Союз», wav

Автор: manfred06
Дата: 21.10.2020
Просмотров: 74
Ответов: 0


https://c.radikal.ru/c15/2010/63/09d75aa09895.jpg

С60 16111 Дискоклуб (2). Джазовая музыка, wav

Автор: manfred06
Дата: 20.10.2020
Просмотров: 65
Ответов: 0


https://a.radikal.ru/a08/2010/a7/5e393f817b9a.jpg

С60 16109 Дискоклуб (2). ВИА «Весёлые ребята», wav

Автор: manfred06
Дата: 20.10.2020
Просмотров: 68
Ответов: 0