Advanced Search

АвторТема: Русланова Лидия - Воспоминания. Песни. LP Мелодия М60 45393 007 (1983)(320 kbps)  (Прочитано 166 раз)

Июль 28, 2020, 23:03:46
Прочитано 166 раз

Онлайн alod382

  • VIP

  • *****

  • Пользователь №: 571348

  • Сообщений: 705

  • Сказал спасибо: 0
  • Получил спасибо: 62

  • Дата регистрации:
    07-12-2015


  • Дата последнего визита:
    Сегодня в 21:32:27


  • Пол: Мужской





Исполнитель: Лидия Русланова
Альбом: Воспоминания. Песни. LP Мелодия М60 45393 007
Год: 1983
Жанр: Фольклор
Время звучания: 00:40:10
Битрейт: 320 kbps
Размер архива: 107,4 Mb (+3% на восстановление)


Содержание:

1. Вниз по Волге-реке
Государственный русский народный оркестр им. Н.Осипова.Дирижёр П.Куликов. 1954 г.
2. Комарики
Ансамбль народных инструментов п/уА.Семёнова. 1947 г.
3. Уж ты, сад
Государственный русский народный оркестр им. Н.Осипова.Дирижёр П.Куликов. 1953 г.
4. Саратовские припевки
В.Максаков, саратовская гармоника. 1954 г.
5. На улице дождик
Государственный русский народный оркестр им. Н.Осипова.Дирижёр П.Куликов. 1954 г.
6. Жигули
В.Максаков, саратовская гармоника. 1954 г.
7. Меж высоких хлебов, сл. Н. Некрасова
Секстет домр п/у Н.Некрасова
8. Расти, моя калинушка
Трио баянистов: И.Марьин, Б.Шашин, А.Марьин 1941 г.
9. Валенки
А.Комлев, баян. 1934 г.

Запись воспоминаний 1970 г.

Рип в виде двух частей.
Оцифровка пластинки из моей коллекции.

Залито на mail.ru и Мегу:

--- Скрытая информация. Для того чтобы получить к ней доступ необходимо зарегистрироваться и поблагодарить автора сообщения нажатием на кнопку "Спасибо" вверху сообщения ---
Друзья называли меня грампластинкой, но я не винил их.

Июль 29, 2020, 23:12:41
Ответ #1

Оффлайн im fam

  • Пользователь

  • *

  • Пользователь №: 18826

  • Сообщений: 66

  • Сказал спасибо: 3
  • Получил спасибо: 0

  • Дата регистрации:
    03-08-2006


  • Дата последнего визита:
    Сегодня в 20:20:32


Можно WAV, ещё если сохранился?
Для желающих
REM DATE 1983
REM COMMENT Мелодия М60 45393 007 (LP, оцифровка [alod382])
PERFORMER "Лидия Русланова"
TITLE "Воспоминания. Песни LP"
FILE "01. Сторона 1.mp3" WAVE
  TRACK 01 AUDIO
    TITLE "Вниз по Волге-реке"
    INDEX 01 00:00:00
  TRACK 02 AUDIO
    TITLE "Комарики"
    INDEX 01 04:32:03
  TRACK 03 AUDIO
    TITLE "Уж ты, сад"
    INDEX 01 07:16:53
  TRACK 04 AUDIO
    TITLE "Саратовские припевки"
    INDEX 01 10:32:73
  TRACK 05 AUDIO
    TITLE "На улице дождик"
    INDEX 01 14:16:18
FILE "02. Сторона 2.mp3" WAVE
  TRACK 06 AUDIO
    TITLE "Жигули"
    INDEX 01 00:00:00
  TRACK 07 AUDIOp3
    INDEX 01 03:26:20
  TRACK 08 AUDIO
    TITLE "Меж высоких хлебов"
    INDEX 01 12:38:37
  TRACK 09 AUDIO
    TITLE "Расти, моя калинушка"
    INDEX 01 17:34:55

Июль 30, 2020, 21:19:25
Ответ #2

Онлайн alod382

  • VIP

  • *****

  • Пользователь №: 571348

  • Сообщений: 705

  • Сказал спасибо: 0
  • Получил спасибо: 62

  • Дата регистрации:
    07-12-2015


  • Дата последнего визита:
    Сегодня в 21:32:27


  • Пол: Мужской

Сохранился.
Архив без пароля (417 МБ)

--- Скрытая информация. Для того чтобы получить к ней доступ необходимо зарегистрироваться и поблагодарить автора сообщения нажатием на кнопку "Спасибо" вверху сообщения ---
Друзья называли меня грампластинкой, но я не винил их.


 


* Новинки раздела Винил Советский


http://images.vfl.ru/ii/1595364268/a899bf2c/31133221.jpg

Лев Лещенко И Группа «Спектр»(1981)

Автор: ur7
Дата: 05.08.2020
Просмотров: 31
Ответов: 0


http://images.vfl.ru/ii/1596051840/9c988aae/31203150.png

Маргарита Суворова ‎– Vinyl, 7", 33 ⅓ RPM, Mono(1965)

Автор: ur7
Дата: 02.08.2020
Просмотров: 91
Ответов: 0


http://images.vfl.ru/ii/1594854472/388d139d/31086157.jpg

Эдита Пьеха ‎– Возвращайся К Началу(1989)

Автор: ur7
Дата: 30.07.2020
Просмотров: 118
Ответов: 1


https://img.discogs.com/_oUsyl4bH1tVNB-oBtWIfDCzsL0=/fit-in/600x576/filters:strip_icc():format(jpeg):mode_rgb():quality(90)/discogs-images/R-12821674-1542607462-2470.jpeg.jpg

Рина Зеленая ‎– Дачный Адрес / Каникулы, Письмо

Автор: webpirat-2007
Дата: 30.07.2020
Просмотров: 118
Ответов: 0


http://images.vfl.ru/ii/1594853892/8623c906/31086151.jpg

Эдита Пьеха = Edith Pjeha ‎– Улыбнитесь, Люди... = Smile On, People(1983)

Автор: ur7
Дата: 29.07.2020
Просмотров: 151
Ответов: 1