Advanced Search

АвторТема: Gary Nova - l remember Russia 1975  (Прочитано 180 раз)

Март 22, 2020, 21:02:55
Прочитано 180 раз

Оффлайн Полосатый

  • Пользователь

  • *

  • Пользователь №: 573041

  • Сообщений: 71

  • Сказал спасибо: 142
  • Получил спасибо: 217

  • Дата регистрации:
    16-09-2016


  • Дата последнего визита:
    Март 28, 2020, 22:34:14


Gary Nova - l remember Russia 1975
« : Март 22, 2020, 21:02:55 »
Gary Nova - l remember Russia 1975




ГАРИ НОВА "Я ВСПОМИНАЮ РОССИЮ" 1975

01. Очи черные
02. Милая
03. Калинка
04. То не ветер ветку клонит
05. Рябина
06. Попурри
07. Катюша
08. Россия
09. Русские мелодии (инструментал)
10. Клен ты мой опавший
11. Подмосковные вечера

--- Скрытая информация. Для того чтобы получить к ней доступ необходимо зарегистрироваться и поблагодарить автора сообщения нажатием на кнопку "Спасибо" вверху сообщения ---





Март 23, 2020, 12:46:59
Ответ #1

Оффлайн im fam

  • Пользователь

  • *

  • Пользователь №: 18826

  • Сообщений: 56

  • Сказал спасибо: 533
  • Получил спасибо: 82

  • Дата регистрации:
    03-08-2006


  • Дата последнего визита:
    Март 28, 2020, 23:55:40


Re: Gary Nova - l remember Russia 1975
« Ответ #1 : Март 23, 2020, 12:46:59 »
Полосатый, спасибо!
У Вас замечательные пластинки.

REM DATE 1975
REM COMMENT USA, Armen Records (LP, оцифровка Полосатый)
PERFORMER "Гари Нова (Gary Nova)"
TITLE "Я вспоминаю Россию (I remember Russia)"
FILE "Сторона 1.flac" WAVE
  TRACK 01 AUDIO
    TITLE "Очи черные"
    INDEX 01 00:00:00
  TRACK 02 AUDIO
    TITLE "Милая"
    INDEX 01 03:33:21
  TRACK 03 AUDIO
    TITLE "Калинка"
    INDEX 01 06:13:63
  TRACK 04 AUDIO
    TITLE "То не ветер ветку клонит"
    INDEX 01 09:09:21
  TRACK 05 AUDIO
    TITLE "Рябина"
    INDEX 01 13:58:35
  TRACK 06 AUDIO
    TITLE "Вернись; Бирюзовые колечки"
    INDEX 01 16:41:55
FILE "Сторона 2.flac" WAVE
  TRACK 07 AUDIO
    TITLE "Катюша"
    INDEX 01 00:00:00
  TRACK 08 AUDIO
    TITLE "Россия"
    INDEX 01 01:46:67
  TRACK 09 AUDIO
    TITLE "Русские мелодии (Попурри; Одинокая гармрнь)"
    INDEX 01 04:21:20
  TRACK 10 AUDIO
    TITLE "Клен ты мой опавший"
    INDEX 01 11:00:00
  TRACK 11 AUDIO
    TITLE "Подмосковные вечера"
    INDEX 01 14:33:02

Март 23, 2020, 15:42:41
Ответ #2

Оффлайн Полосатый

  • Пользователь

  • *

  • Пользователь №: 573041

  • Сообщений: 71

  • Сказал спасибо: 142
  • Получил спасибо: 217

  • Дата регистрации:
    16-09-2016


  • Дата последнего визита:
    Март 28, 2020, 22:34:14


Re: Gary Nova - l remember Russia 1975
« Ответ #2 : Март 23, 2020, 15:42:41 »
Пожалуйста. Если есть какие-то предпочтения, пишите, может есть в загашнике )))

Март 23, 2020, 16:23:06
Ответ #3

Оффлайн miramax31

  • Administrator

  • *****

  • Пользователь №: 1

  • Сообщений: 37 483

  • Сказал спасибо: 3105
  • Получил спасибо: 183729

  • Дата регистрации:
    28-10-2005


  • Дата последнего визита:
    Сегодня в 07:42:39


  • Пол: Мужской

Re: Gary Nova - l remember Russia 1975
« Ответ #3 : Март 23, 2020, 16:23:06 »
 super.gif


 


* Новинки раздела Винил Эмиграция, Шансон и Барды


https://a.radikal.ru/a22/2003/77/091982a1acff.jpg

Gary Nova - l remember Russia 1975

Автор: Полосатый
Дата: 22.03.2020
Просмотров: 180
Ответов: 3


https://c.radikal.ru/c08/2003/aa/d7d6fccc7531.jpg

un Soir a Moscou

Автор: Полосатый
Дата: 02.03.2020
Просмотров: 227
Ответов: 2


https://d.radikal.ru/d06/2003/29/d7cd95ae327e.jpg

Ирина Бондырева - Цыганский табор

Автор: Полосатый
Дата: 01.03.2020
Просмотров: 424
Ответов: 7


http://images.vfl.ru/ii/1582902200/93673a67/29726920.jpg

Владимир Асмолов ‎– Славянский Базар(1991)

Автор: ur7
Дата: 28.02.2020
Просмотров: 138
Ответов: 1


https://d.radikal.ru/d04/2002/4b/44c59c960ebd.jpg

Z.Borodo - Пой Казак

Автор: Полосатый
Дата: 27.02.2020
Просмотров: 669
Ответов: 24