Advanced Search

АвторТема: un Soir a Moscou  (Прочитано 818 раз)

Март 02, 2020, 17:55:35
Прочитано 818 раз

Оффлайн Полосатый

  • Пользователь

  • *

  • Пользователь №: 573041

  • Сообщений: 135

  • Сказал спасибо: 20
  • Получил спасибо: 261

  • Дата регистрации:
    16-09-2016


  • Дата последнего визита:
    Октябрь 30, 2020, 21:20:17


un Soir a Moscou
« : Март 02, 2020, 17:55:35 »
Irina Bondireva Wladimir Slatcheff Zwi Borodo Lajos Boross et ses tziganes et Mirco Layosh et ses tziganes un Soir a Moscou




01 – Попурри
02 - Дни за днями
03 – Инструментал
04 – Смуглянка
05 - Гори, гори
06 – Инструментал
07 - Что-то грустно
08 – Инструментал
09 - Играй гитара
10 – Инструментал
11 - С песней у костра
12 – Инструментал

--- Скрытая информация. Для того чтобы получить к ней доступ необходимо зарегистрироваться и поблагодарить автора сообщения нажатием на кнопку "Спасибо" вверху сообщения ---

Март 02, 2020, 20:25:31
Ответ #1

Онлайн miramax31

  • Administrator

  • *****

  • Пользователь №: 1

  • Сообщений: 40 613

  • Сказал спасибо: 177
  • Получил спасибо: 20579

  • Дата регистрации:
    28-10-2005


  • Дата последнего визита:
    Сегодня в 05:09:36


  • Пол: Мужской

Re: un Soir a Moscou
« Ответ #1 : Март 02, 2020, 20:25:31 »
Вань, огромное спасибо  :sm03 (8):




Март 04, 2020, 06:50:11
Ответ #2

Оффлайн im fam

  • Пользователь

  • *

  • Пользователь №: 18826

  • Сообщений: 66

  • Сказал спасибо: 43
  • Получил спасибо: 2

  • Дата регистрации:
    03-08-2006


  • Дата последнего визита:
    Октябрь 30, 2020, 23:06:24


Re: un Soir a Moscou
« Ответ #2 : Март 04, 2020, 06:50:11 »
REM COMMENT France, National 16.104, № XPRX 3642 A, XPRX 3643 B
PERFORMER "VA"
TITLE "Вечер в Москве (un Soir a Moscou avec VA)"
FILE "Сторона 1.flac" WAVE
  TRACK 01 AUDIO
    TITLE "La danse des Popes (Танец)"
    PERFORMER "Mirco Layos, Lajos Boross (Мирко Лайош, Лайош Борош и их цыгане)"
    INDEX 01 00:00:00
  TRACK 02 AUDIO
    TITLE "Les Tziganes passent (Прощай, мой табор)"
    PERFORMER "Irina Bondireva (Ирина Бондырева)"
    INDEX 01 04:53:49
  TRACK 03 AUDIO
    TITLE "Le Chrysantheme_(Хризантемы)"
    PERFORMER "Mirco Layos, Lajos Boross (Мирко Лайош, Лайош Борош и их цыгане)"
    INDEX 01 07:56:63
  TRACK 04 AUDIO
    TITLE "La jeune fille moldave (Смуглянка)"
    PERFORMER "Wladimir Slatcheff (Владимир Слащёв)"
    INDEX 01 09:57:44
  TRACK 05 AUDIO
    TITLE "La Pomme; Les deux Guitares (Яблочко; Две гитары)"
    PERFORMER "Mirco Layos, Lajos Boross (Мирко Лайош, Лайош Борош и их цыгане)"
    INDEX 01 12:52:61
  TRACK 06 AUDIO
    TITLE "Cocher va vers le bois (Эй, ямщик гони-ка к Яру)"
    PERFORMER "Zwi Borodo (Герш Бородо)"
    INDEX 01 16:28:68
FILE "Сторона 2.flac" WAVE
  TRACK 07 AUDIO
    TITLE "Gori-Gori (Гори, гори любовь цыганки)"
    PERFORMER "Irina Bondireva (Ирина Бондырева)"
    INDEX 01 00:00:00
  TRACK 08 AUDIO
    TITLE "Hora Roumaine (Румынская хора)"
    PERFORMER "Mirco Layos, Lajos Boross (Мирко Лайош, Лайош Борош и их цыгане)"
    INDEX 01 02:13:66
  TRACK 09 AUDIO
    TITLE "Toujours avec la Guitare (Всегда с гитарой)"
    PERFORMER "Wladimir Slatcheff (Владимир Слащёв)"
    INDEX 01 05:58:68
  TRACK 10 AUDIO
    TITLE "L'Alouette (Жаворонок)"
    PERFORMER "Mirco Layos, Lajos Boross (Мирко Лайош, Лайош Борош и их цыгане)"
    INDEX 01 08:52:48
  TRACK 11 AUDIO
    TITLE "Kazbeck (Казбек)"
    PERFORMER "Zwi Borodo (Герш Бородо)"
    INDEX 01 10:57:17
  TRACK 12 AUDIO
    TITLE "Ritka buza czardas (Чардаш)"
    PERFORMER "Mirco Layos, Lajos Boross (Мирко Лайош, Лайош Борош и их цыгане)"
    INDEX 01 14:23:67

Сентябрь 29, 2020, 22:24:58
Ответ #3

Оффлайн Alex95

  • Пользователь

  • *

  • Пользователь №: 579338

  • Сообщений: 81

  • Сказал спасибо: 45
  • Получил спасибо: 0

  • Дата регистрации:
    03-10-2019


  • Дата последнего визита:
    Октябрь 26, 2020, 20:05:11


  • Пол: Мужской

Re: un Soir a Moscou
« Ответ #3 : Сентябрь 29, 2020, 22:24:58 »
Обновите, пожалуйста! Спасибо!
Проходит все, пройдет и это...

Октябрь 10, 2020, 16:46:38
Ответ #4

Оффлайн ermak57

  • VIP

  • *****

  • Пользователь №: 22499

  • Сообщений: 6 891

  • Сказал спасибо: 37
  • Получил спасибо: 89

  • Дата регистрации:
    03-09-2006


  • Дата последнего визита:
    Октябрь 29, 2020, 18:58:29


Re: un Soir a Moscou
« Ответ #4 : Октябрь 10, 2020, 16:46:38 »
Обновите, пожалуйста! Спасибо!

Поддерживаю автора: ОБНОВИТЕ, пожалуйста.

Октябрь 13, 2020, 21:19:09
Ответ #5

Оффлайн ALECSANDR

  • Пользователь

  • *

  • Пользователь №: 289364

  • Сообщений: 605

  • Сказал спасибо: 8
  • Получил спасибо: 49

  • Дата регистрации:
    25-02-2009


  • Дата последнего визита:
    Октябрь 29, 2020, 22:38:38


  • Пол: Мужской

Re: un Soir a Moscou
« Ответ #5 : Октябрь 13, 2020, 21:19:09 »
Ссылка, к сожалению, не работает, можно вас попросить, пожалуйста, выложить этот альбом ещё раз обновите ссылку. :sm01 (16):

Октябрь 19, 2020, 03:54:42
Ответ #6

Онлайн miramax31

  • Administrator

  • *****

  • Пользователь №: 1

  • Сообщений: 40 613

  • Сказал спасибо: 177
  • Получил спасибо: 20579

  • Дата регистрации:
    28-10-2005


  • Дата последнего визита:
    Сегодня в 05:09:36


  • Пол: Мужской

Re: un Soir a Moscou
« Ответ #6 : Октябрь 19, 2020, 03:54:42 »
Обновил.


 


* Новинки раздела Винил Эмиграция, Шансон и Барды


http://images.vfl.ru/ii/1602959355/c738697f/31971142.jpg

Евгений Бачурин ‎– Я Предлагаю Спеть О Том...(1986)

Автор: ur7
Дата: 31.10.2020
Просмотров: 32
Ответов: 0


https://a.radikal.ru/a18/2010/53/b0531c3f51a5.jpg

Русский цыганский оркестр - Лейся милое вино

Автор: Nick123
Дата: 22.10.2020
Просмотров: 122
Ответов: 1


https://c.radikal.ru/c39/2010/0b/cbb05d4d8fec.jpg

Nikolai Massenkoff - Sings With Balalaika Orchestra

Автор: Полосатый
Дата: 19.10.2020
Просмотров: 115
Ответов: 0


http://images.vfl.ru/ii/1602538439/b7bae978/31918929.jpg

Константин Сокольский ‎– Старинные романсы(1976)

Автор: ur7
Дата: 18.10.2020
Просмотров: 429
Ответов: 9


https://d.radikal.ru/d37/2010/8e/4f31963374aa.jpg

Борис Рубашкин - Favourite Russian songs 1967

Автор: Полосатый
Дата: 16.10.2020
Просмотров: 201
Ответов: 1