Advanced Search

АвторТема: Сектор газа - Оцифровка с кассеты  (Прочитано 3572 раз)

Сентябрь 08, 2013, 11:23:20
Прочитано 3572 раз

Оффлайн vovafed59

  • Пользователь

  • *

  • Пользователь №: 473041

  • Сообщений: 824

  • Сказал спасибо: 0
  • Получил спасибо: 54

  • Дата регистрации:
    14-11-2010


  • Дата последнего визита:
    Октябрь 18, 2016, 06:57:45


  • Пол: Мужской

Сектор газа - Оцифровка с кассеты
« : Сентябрь 08, 2013, 11:23:20 »


Оцифровка маг.Техникс рс 20т прог.Soni sound forge pro 10.0 Обработка не проводилась.

--- Скрытая информация. Для того чтобы получить к ней доступ необходимо зарегистрироваться и поблагодарить автора сообщения нажатием на кнопку "Спасибо" вверху сообщения ---

Сентябрь 15, 2013, 16:32:55
Ответ #1

Оффлайн vovafed59

  • Пользователь

  • *

  • Пользователь №: 473041

  • Сообщений: 824

  • Сказал спасибо: 0
  • Получил спасибо: 54

  • Дата регистрации:
    14-11-2010


  • Дата последнего визита:
    Октябрь 18, 2016, 06:57:45


  • Пол: Мужской

Сектор газа - Оцифровка с кассеты
« Ответ #1 : Сентябрь 15, 2013, 16:32:55 »
Цитировать
vovafed59, что-то не получается прослушать

 Проверил все работает прописал КУЕ без исполнителей названия по первым или повторяющимся словам

Цитировать
Цитировать
REM GENRE соунтрек
REM DATE 2003
REM "Оцифровка - мирфед(vovafed59)
REM COMMENT "Soni Sound Forge 10.0 pro"
PERFORMER "Бумер"
TITLE " Бумер "
FILE "Бумер.flac" WAVE
  TRACK 01 AUDIO
    TITLE "Здорово парни"
    INDEX 01 00:00:00
  TRACK 02 AUDIO
    TITLE "Домой...пора домой"
    INDEX 01 07:49:52
  TRACK 03 AUDIO
    TITLE "Проститутка"
    INDEX 01 11:58:44
  TRACK 04 AUDIO
    TITLE "Делать нечего в селе"
    INDEX 01 14:26:70
  TRACK 05 AUDIO
    TITLE "Я некрасивый..."
    INDEX 01 17:26:44
  TRACK 06 AUDIO
    TITLE "Частушки"
    INDEX 01 20:27:59
  TRACK 07 AUDIO
    TITLE "Мне сегодня 30 лет"
    INDEX 01 26:14:69
  TRACK 08 AUDIO
    TITLE "Водку я налил в стакан..."
    INDEX 01 30:38:38
  TRACK 09 AUDIO
    TITLE "Песня бомжа"
    INDEX 01 34:11:03
  TRACK 10 AUDIO
    TITLE "Чистая Любовь"
    INDEX 01 37:57:15
  TRACK 11 AUDIO
    TITLE "Я взял вину на себя"
    INDEX 01 42:13:68
  TRACK 12 AUDIO
    TITLE "Демобилизация"
    INDEX 01 45:37:06
  TRACK 13 AUDIO
    TITLE "Все что тебя касается"
    INDEX 01 49:35:73
  TRACK 14 AUDIO
    TITLE "Девочки мальчики танцуют"
    INDEX 01 53:15:20
  TRACK 15 AUDIO
    TITLE "Любовь зарядила"
    INDEX 01 56:11:26
  TRACK 16 AUDIO
    TITLE "Бывает..."
    INDEX 01 59:58:05
  TRACK 17 AUDIO
    TITLE "Бьется сердце.."
    INDEX 01 63:21:08
  TRACK 18 AUDIO
    TITLE "Я ухожу красиво"
    INDEX 01 66:44:47
  TRACK 19 AUDIO
    TITLE "Ты ждала меня 2 года.."
    INDEX 01 70:11:53
  TRACK 20 AUDIO
    TITLE "Мобильник"
    INDEX 01 74:49:69