Шансон Плюс

Музыкальные релизы => Винил => Винил Эмиграция, Шансон и Барды => Тема начата: Полосатый от Апрель 06, 2020, 16:50:54

Название: De Tarass Boulba a Gagarine
Отправлено: Полосатый от Апрель 06, 2020, 16:50:54
De Tarass Boulba a Gagarine

(https://d.radikal.ru/d10/2004/cd/545173f4f7c7.jpg) (https://radikal.ru)
(https://b.radikal.ru/b31/2004/9e/2bf2a0b69903.jpg) (https://radikal.ru)

01. Камаринская
02. Золотые вы песочки
03. Калинка-малинка
04. При народе
05. Мама я жулика люблю
06. Как у дуба старого

--- Скрытая информация. Для того чтобы получить к ней доступ необходимо зарегистрироваться и поблагодарить автора сообщения нажатием на кнопку "Спасибо" вверху сообщения ---
Название: Re: De Tarass Boulba a Gagarine
Отправлено: im fam от Апрель 07, 2020, 11:43:45
(https://img.cdandlp.com/2012/10/imgL/115740334-2.jpg)

На данном ЕР-диске - De Loutchek Marc Ensemble & Aliocha Dimitrievitch - «De Tarass Boulba A Gagarine» записано 6 композиций .
В описании сказано, что это оригинальный саундтрек к телевизионному музыкально-документальному фильму "От Тараса Бульбы до Гагарина" ("De Tarass Boulba à Gagarine") сценариста Клода Верника и режиссёра Франца Морани. Официальный релиз ЕР-диска (макси-сингла) с саундтреком - январь 1968 год (B.O.F. «Films»/ Disc'AZ ). Одну из песен на 2-ой стороне исполняет Алёша Димитриевич ("Мама, я жулика люблю" / "J’aime un voyou, maman").
Телевизионный фильм "От Тараса Бульбы до Гагарина" является документальным сериалом из 13-ти серий, который был показан в течении одного года в период 1968-69 гг., по французскому теле-каналу RTL, а так же транслировался в Канаде и Люксембурге. В музыкально-документальном фильме рассказывается об истории русской творческой эмиграции, танцорах, певцах, музыкантах. Сериал с успехом шёл по телевидению разных стран до конца 70-х годов и даже попал в разряд "лучших" программ. Съёмки документального фильма "De Tarass Boulba à Gagarine" проходили в Париже.
Французский сценарист, писатель, продюсер и создатель фильмов Клод Верник не раз обращался к "цыганской теме" в документальном кино. Во второй половине 70-х годов, он снял документальный фильм о цыганской культуре - "Западный Огонь" для сериала "Звезды в кулисах: Цыгане без границ", который шёл на французских экранах в период с 1976 по 1978 годы.

REM DATE 1968
REM COMMENT France, AZ / EP-1180 (EP 7', оцифровка Полосатый)
PERFORMER "Марк де Лучек и Алеша Димитриевич (De Loutchek Marc Ensemble & Aliocha Dimitrievitch)"
TITLE "От Тараса Бульбы до Гагарина (De Tarass Boulba a Gagarine)"
FILE "Сторона 1.flac" WAVE
  TRACK 01 AUDIO
    TITLE "Камаринская"
    INDEX 01 00:00:00
  TRACK 02 AUDIO
    TITLE "Золотые вы песочки"
    INDEX 01 02:40:02
  TRACK 03 AUDIO
    TITLE "Калинка-малинка"
    INDEX 01 04:19:27
FILE "Сторона 2.flac" WAVE
  TRACK 04 AUDIO
    TITLE "При народе"
    INDEX 01 00:00:00
  TRACK 05 AUDIO
    TITLE "Мама я жулика люблю"
    INDEX 01 01:01:25
  TRACK 06 AUDIO
    TITLE "Как у дуба старого"
    INDEX 01 02:57:49
Название: Re: De Tarass Boulba a Gagarine
Отправлено: miramax31 от Апрель 10, 2020, 15:06:46
Вань, спасибо за этот винил, именно этого альбома у меня не было.
im fam, спасибо за картинку и инфо  claphands.gif
Название: Re: De Tarass Boulba a Gagarine
Отправлено: miramax31 от Ноябрь 15, 2020, 20:11:44
Обновлён.