Шансон Плюс

Музыкальные релизы => Винил => Винил Эмиграция, Шансон и Барды => Тема начата: Полосатый от Апрель 05, 2020, 11:57:25

Название: Yury Valeho ‎– Friends Going Away...
Отправлено: Полосатый от Апрель 05, 2020, 11:57:25
Yury Valeho ‎– Friends Going Away...

(https://a.radikal.ru/a43/2004/3c/7f45ae788a74.jpg) (https://radikal.ru)
(https://d.radikal.ru/d41/2004/03/3e376e2a85d8.jpg) (https://radikal.ru)

--- Скрытая информация. Для того чтобы получить к ней доступ необходимо зарегистрироваться и поблагодарить автора сообщения нажатием на кнопку "Спасибо" вверху сообщения ---
Название: Re: Yury Valeho ‎– Friends Going Away...
Отправлено: im fam от Апрель 05, 2020, 12:45:03
Полосатый спасибо!
Юрий Валехо, Сергей Лазар, Гари Нова - есть ли какая-нибудь информация об этих исполнителях?
Название: Re: Yury Valeho ‎– Friends Going Away...
Отправлено: Полосатый от Апрель 05, 2020, 13:12:36
Про Гари Нова можно тут почитать: https://www.barynya.com/wolownik.htm Правда перевод нужен на русский.
Про Юрия Валехо ничего не знаю. Единственное что могу сказать, что пластинка эта была записана в Америке Р.Фуксом на Кисмете. Фукс часто менял название фирм из-за авторских прав.
Про Серея Лазара попробую найти, где-то читал про него, где, уже не помню...
Название: Re: Yury Valeho ‎– Friends Going Away...
Отправлено: miramax31 от Апрель 05, 2020, 13:35:36
Спасибо Вань, замечательные релизы.

(https://a.radikal.ru/a37/2004/58/391a6ea8401b.jpg) (https://radikal.ru)
(https://a.radikal.ru/a07/2004/cd/abb436858179.jpg) (https://radikal.ru)
Название: Re: Yury Valeho ‎– Friends Going Away...
Отправлено: im fam от Апрель 06, 2020, 06:02:39
Содержание:

If you are my enemy (В. Качан)
Friends going away (В. Егоров)
The rains (В. Егоров)
Orange cat (В. Качан)
For wedding (В. Качан)
Nefertiti (В. Качан)
Natasha (В. Качан)
We are going away (В. Качан)
Forgive me (В. Качан)
You don't believe (В. Качан)
How did he dare (В. Качан)
Of old man, his dog, and (В. Берковский)
Snow, snow (В. Качан)
Night students' session (В. Качан)
Again alone (В. Качан)
Sea happens different (В. Качан)

REM COMMENT USA, YVV. Записано в Америке Р.Фуксом на Кисмете  (LP, оцифровка Полосатый)
PERFORMER "Юрий Валехо (Yury Valeho)"
TITLE "Друзья уходят (Friends Going Away...)"
FILE "Сторона 1.flac" WAVE
  TRACK 01 AUDIO
    TITLE "If you are my enemy"
    SONGWRITER "В. Качан"
    INDEX 01 00:00:00
  TRACK 02 AUDIO
    TITLE "Friends going away"
    SONGWRITER "В. Егоров"
    INDEX 01 02:03:60
  TRACK 03 AUDIO
    TITLE "The rains"
    SONGWRITER "В. Егоров"
    INDEX 01 04:16:22
  TRACK 04 AUDIO
    TITLE "Orange cat"
    SONGWRITER "В. Качан"
    INDEX 01 06:09:02
  TRACK 05 AUDIO
    TITLE "For wedding"
    SONGWRITER "В. Качан"
    INDEX 01 08:27:21
  TRACK 06 AUDIO
    TITLE "Nefertiti"
    SONGWRITER "В. Качан"
    INDEX 01 10:24:47
  TRACK 07 AUDIO
    TITLE "Natasha"
    SONGWRITER "В. Качан"
    INDEX 01 12:15:23
FILE "Сторона 2.flac" WAVE
  TRACK 08 AUDIO
    TITLE "We are going away"
    SONGWRITER "В. Качан"
    INDEX 01 00:00:00
  TRACK 09 AUDIO
    TITLE "Forgive me"
    SONGWRITER "В. Качан"
    INDEX 01 02:23:61
  TRACK 10 AUDIO
    TITLE "You don't believe"
    SONGWRITER "В. Качан"
    INDEX 01 03:49:58
  TRACK 11 AUDIO
    TITLE "How did he dare"
    SONGWRITER "В. Качан"
    INDEX 01 05:49:33
  TRACK 12 AUDIO
    TITLE "Of old man, his dog, and"
    SONGWRITER "В. Берковский"
    INDEX 01 07:25:36
  TRACK 13 AUDIO
    TITLE "Snow, snow"
    SONGWRITER "В. Качан"
    INDEX 01 09:42:10
  TRACK 14 AUDIO
    TITLE "Night students' session"
    SONGWRITER "В. Качан"
    INDEX 01 12:00:04
  TRACK 15 AUDIO
    TITLE "Again alone"
    SONGWRITER "В. Качан"
    INDEX 01 13:16:21
  TRACK 16 AUDIO
    TITLE "Sea happens different"
    SONGWRITER "В. Качан"
    INDEX 01 14:15:22
Название: Re: Yury Valeho ‎– Friends Going Away...
Отправлено: miramax31 от Ноябрь 13, 2020, 22:26:24
Спасибо Ваня за то, что обновил.