Advanced Search

АвторТема: Various Artists - Schlager-Power CD 7  (Прочитано 128 раз)

Август 15, 2022, 07:01:20
Прочитано 128 раз

Оффлайн alexpika

  • VIP

  • *****

  • Пользователь №: 7523

  • Сообщений: 2 969

  • Сказал спасибо: 57
  • Получил спасибо: 1605

  • Дата регистрации:
    12-04-2006


  • Дата последнего визита:
    Сегодня в 06:59:21


Various Artists - Schlager-Power CD 7
« : Август 15, 2022, 07:01:20 »


Сборник: Various Artists - Schlager-Power CD 7
Год выпуска: ????
Время звучания: 00:50:43
Жанр: Поп
Формат: FLAC (image + cue)
Качество: Lossless
Количество треков: 16
Размер архива: 362 мб
Язык релиза: разные

Содержание:

01. Gus Backus / Memories Of Heidelberg    [0:02:37.49]
02. Marianne Hagen / Tausend Sterne immer allein    [0:02:15.70]
03. Chris Wolf / Am Strand von Maspalomas    [0:03:06.10]
04. Michael Martin / Der Tag ist vorbei    [0:03:43.27]
05. Audrey Landers / See You In The Morning    [0:02:24.07]
06. Jürgen Bauer / Du bist mein Schatz    [0:03:13.42]
07. Batta Illic / Dich erkenn' ich mit verbundenen Augen    [0:03:12.57]
08. Jacqueline Bach / Meine Sehnsuchst bist Du    [0:02:45.74]
09. Comedian Harmonists / Wochenend und Sonnenschein    [0:03:12.58]
10. Flamingos / So schön, so schön    [0:03:07.65]
11. Nina & Mike / Fahrende Musikanten    [0:04:01.22]
12. Oliver Peter / Die Sehnsucht brennt in mir    [0:03:18.22]
13. Jürgen Markus / Ein Festival der Liebe    [0:04:02.49]
14. Andrea Siegel / Mein Freund weisse Feder    [0:01:51.32]
15. Camillo Felgen / Lieber Frühling lass es blühen    [0:02:25.22]
16. Tommy Peters / Heute gebe ich mir frei    [0:05:23.58]



Комментарий к релизу:

"Various Artists - Schlager-Power CD7" - седьмой номерной сборник поп-шлягеров международных исполнителей.

сканы





лог
Exact Audio Copy V1.5 from 20. February 2020

EAC extraction logfile from 3. June 2022, 10:34

Various Artists / Schlager-Power CD 7

Used drive  : TSSTcorpCDDVDW SH-216DB   Adapter: 1  ID: 0

Read mode               : Secure
Utilize accurate stream : Yes
Defeat audio cache      : Yes
Make use of C2 pointers : No

Read offset correction                      : 6
Overread into Lead-In and Lead-Out          : No
Fill up missing offset samples with silence : Yes
Delete leading and trailing silent blocks   : No
Null samples used in CRC calculations       : Yes
Used interface                              : Native Win32 interface for Win NT & 2000

Used output format              : User Defined Encoder
Selected bitrate                : 128 kBit/s
Quality                         : High
Add ID3 tag                     : No
Command line compressor         : C:\Program Files (x86)\Exact Audio Copy\FLAC\FLAC.EXE
Additional command line options : -V -8 -T "Date=%year%" -T "Genre=%genre%" %source%


TOC of the extracted CD

     Track |   Start  |  Length  | Start sector | End sector
    ---------------------------------------------------------
        1  |  0:00.00 |  2:37.49 |         0    |    11823   
        2  |  2:37.49 |  2:15.70 |     11824    |    22018   
        3  |  4:53.44 |  3:06.10 |     22019    |    35978   
        4  |  7:59.54 |  3:43.27 |     35979    |    52730   
        5  | 11:43.06 |  2:24.07 |     52731    |    63537   
        6  | 14:07.13 |  3:13.42 |     63538    |    78054   
        7  | 17:20.55 |  3:12.57 |     78055    |    92511   
        8  | 20:33.37 |  2:45.74 |     92512    |   104960   
        9  | 23:19.36 |  3:12.58 |    104961    |   119418   
       10  | 26:32.19 |  3:07.65 |    119419    |   133508   
       11  | 29:40.09 |  4:01.22 |    133509    |   151605   
       12  | 33:41.31 |  3:18.22 |    151606    |   166477   
       13  | 36:59.53 |  4:02.49 |    166478    |   184676   
       14  | 41:02.27 |  1:51.32 |    184677    |   193033   
       15  | 42:53.59 |  2:25.22 |    193034    |   203930   
       16  | 45:19.06 |  5:23.58 |    203931    |   228213   


Range status and errors

Selected range

     Filename R:\Private\My Audio Ripps\CD\Various Artists - Schlager-Power CD 7.wav

     Copy aborted

End of status report

==== Log checksum C376F3157CA9702A6DEF51A925E7C944581DEA5402CC8D8EBC9BB777A682F160 ====

Издатель (лейбл): Rondo CD 22630
Продолжительность: 00:50:43
Параметры: CD, Compilation, Rip, flac + cue + log
Источник: компакт-диск из собственной коллекции
Код класса состояния CD: Near Mint
Программа-оцифровщик: Exact Audio Copy
Рип: alexpika

--- Скрытая информация. Для того чтобы получить к ней доступ необходимо зарегистрироваться и поблагодарить автора сообщения нажатием на кнопку "Спасибо" вверху сообщения ---



Кто онлайн

Просматривают тему:
0 Пользователей: 0 Пользователей и 1 Гость
 


* Новинки раздела Всемирная музыка Lossless


https://i120.fastpic.org/thumb/2022/0925/53/_679fdfb29e9f70033f7e2cdcf9d0b353.jpeg

INSTRUMENTAL TOP SELLERS - Vol. 4

Автор: alexpika
Дата: 25.09.2022
Просмотров: 16
Ответов: 0


https://i120.fastpic.org/thumb/2022/0922/fa/f8879a92da0f486b945514b2981f5bfa.jpeg

Headline – Wenn der weiße Flieder wieder blüht

Автор: alexpika
Дата: 23.09.2022
Просмотров: 49
Ответов: 0


https://i120.fastpic.org/thumb/2022/0906/ce/5f1c035e60a157f256413d969d39c8ce.jpeg

Gerhard Winkler - Musik hat mich verliebt gemacht

Автор: alexpika
Дата: 06.09.2022
Просмотров: 144
Ответов: 0


https://i120.fastpic.org/thumb/2022/0904/86/22862dd42c547bd6060d64ad91cfa986.jpeg

Gerhard Winkler - Gerhard Winkler

Автор: alexpika
Дата: 04.09.2022
Просмотров: 109
Ответов: 0


https://i120.fastpic.org/thumb/2022/0902/26/df7c320e35d12120cabd4aa4d926d726.jpeg

DEUTSCHE SCHLAGER - NONSTOP PARTY MIX

Автор: alexpika
Дата: 02.09.2022
Просмотров: 138
Ответов: 0