Advanced Search

АвторТема: Various Artists - Schlager-Power CD5  (Прочитано 134 раз)

Август 11, 2022, 07:27:13
Прочитано 134 раз

Оффлайн alexpika

  • VIP

  • *****

  • Пользователь №: 7523

  • Сообщений: 2 969

  • Сказал спасибо: 57
  • Получил спасибо: 1605

  • Дата регистрации:
    12-04-2006


  • Дата последнего визита:
    Сегодня в 06:59:21


Various Artists - Schlager-Power CD5
« : Август 11, 2022, 07:27:13 »


Сборник: Various Artists - Schlager-Power CD5
Год выпуска: 2009
Время звучания: 00:51:44
Жанр: Поп
Формат: FLAC (image + cue)
Качество: Lossless
Количество треков: 16
Размер архива: 376 мб
Язык релиза: разные

Содержание:

01. Tom Jones / Green Green Grass Of Home    [0:02:35.01]
02. Duo Herzklopfen / Drei weisse Rosen    [0:03:13.28]
03. Roy Black / Wilde Kirschen blühen früh    [0:03:50.30]
04. Flamingos / Ein Haus in den Bergen    [0:03:08.17]
05. Gitti und Erika / Ich hab' Sehnsucht nach der Ferne    [0:03:46.44]
06. Tommy Peters / Verlorene Träume    [0:03:05.59]
07. Peter Beil / Fremde in der Nacht    [0:02:51.43]
08. Jacqueline Bach / Singe, tanze, lache mit mir    [0:03:09.58]
09. Lolita / Von Hawaii bis Tomé    [0:04:14.55]
10. Jürgen Bauer / Ein Freund    [0:03:12.43]
11. Piera Martell / Frühling, Frühling    [0:02:57.09]
12. Oliver Peter / Durch Musik mit den Zwergen    [0:03:06.50]
13. Holger Stern / Ich bin ein einsamer Reiter    [0:02:52.00]
14. Andrea Siegel / In der Prärie    [0:02:25.51]
15. Uwe Busse / Buenos Dias weisse Taube    [0:03:42.38]
16. Michael Martin / Du bist die Schönste    [0:03:32.22]



Комментарий к релизу:

"Various Artists - Schlager-Power CD5" - пятый номерной сборник поп-шлягеров международных исполнителей

сканы





лог
Exact Audio Copy V1.5 from 20. February 2020

EAC extraction logfile from 2. June 2022, 6:37

Various Artists / Schlager-Power CD5

Used drive  : TSSTcorpCDDVDW SH-216DB   Adapter: 1  ID: 0

Read mode               : Secure
Utilize accurate stream : Yes
Defeat audio cache      : Yes
Make use of C2 pointers : No

Read offset correction                      : 6
Overread into Lead-In and Lead-Out          : No
Fill up missing offset samples with silence : Yes
Delete leading and trailing silent blocks   : No
Null samples used in CRC calculations       : Yes
Used interface                              : Native Win32 interface for Win NT & 2000

Used output format              : User Defined Encoder
Selected bitrate                : 128 kBit/s
Quality                         : High
Add ID3 tag                     : No
Command line compressor         : C:\Program Files (x86)\Exact Audio Copy\FLAC\FLAC.EXE
Additional command line options : -V -8 -T "Date=%year%" -T "Genre=%genre%" %source%


TOC of the extracted CD

     Track |   Start  |  Length  | Start sector | End sector
    ---------------------------------------------------------
        1  |  0:00.00 |  2:35.01 |         0    |    11625   
        2  |  2:35.01 |  3:13.28 |     11626    |    26128   
        3  |  5:48.29 |  3:50.30 |     26129    |    43408   
        4  |  9:38.59 |  3:08.17 |     43409    |    57525   
        5  | 12:47.01 |  3:46.44 |     57526    |    74519   
        6  | 16:33.45 |  3:05.59 |     74520    |    88453   
        7  | 19:39.29 |  2:51.43 |     88454    |   101321   
        8  | 22:30.72 |  3:09.58 |    101322    |   115554   
        9  | 25:40.55 |  4:14.55 |    115555    |   134659   
       10  | 29:55.35 |  3:12.43 |    134660    |   149102   
       11  | 33:08.03 |  2:57.09 |    149103    |   162386   
       12  | 36:05.12 |  3:06.50 |    162387    |   176386   
       13  | 39:11.62 |  2:52.00 |    176387    |   189286   
       14  | 42:03.62 |  2:25.51 |    189287    |   200212   
       15  | 44:29.38 |  3:42.38 |    200213    |   216900   
       16  | 48:12.01 |  3:32.22 |    216901    |   232822   


Range status and errors

Selected range

     Filename R:\Private\My Audio Ripps\CD\Various Artists - Schlager-Power CD5.wav

     Peak level 100.0 %
     Extraction speed 2.4 X
     Range quality 100.0 %
     Test CRC 280D066B
     Copy CRC 280D066B
     Copy OK

No errors occurred

 
AccurateRip summary
 
Track  1  not present in database
Track  2  not present in database
Track  3  not present in database
Track  4  not present in database
Track  5  not present in database
Track  6  not present in database
Track  7  not present in database
Track  8  not present in database
Track  9  not present in database
Track 10  not present in database
Track 11  not present in database
Track 12  not present in database
Track 13  not present in database
Track 14  not present in database
Track 15  not present in database
Track 16  not present in database
 
None of the tracks are present in the AccurateRip database

End of status report

---- CUETools DB Plugin V2.1.6

[CTDB TOCID: nP4Yf7u39Y4VQsTbjJIeEyjMq.c-] found
Submit result: nP4Yf7u39Y4VQsTbjJIeEyjMq.c- has been confirmed
Track | CTDB Status
  1   | (6/6) Accurately ripped
  2   | (6/6) Accurately ripped
  3   | (6/6) Accurately ripped
  4   | (6/6) Accurately ripped
  5   | (6/6) Accurately ripped
  6   | (6/6) Accurately ripped
  7   | (6/6) Accurately ripped
  8   | (6/6) Accurately ripped
  9   | (6/6) Accurately ripped
 10   | (6/6) Accurately ripped
 11   | (6/6) Accurately ripped
 12   | (6/6) Accurately ripped
 13   | (6/6) Accurately ripped
 14   | (6/6) Accurately ripped
 15   | (6/6) Accurately ripped
 16   | (6/6) Accurately ripped


==== Log checksum 4F59E22ADCFD802DFA70AAFC8FD6F526339F61779FCD8FBC954CD72D1A2D525A ====

Издатель (лейбл): Rondo Hitline  CD5 22628
Продолжительность: 00:51:44
Параметры: CD, Compilation, Rip, flac + cue + log
Источник: компакт-диск из собственной коллекции
Код класса состояния CD: Near Mint
Программа-оцифровщик: Exact Audio Copy
Рип: alexpika

--- Скрытая информация. Для того чтобы получить к ней доступ необходимо зарегистрироваться и поблагодарить автора сообщения нажатием на кнопку "Спасибо" вверху сообщения ---



Кто онлайн

Просматривают тему:
0 Пользователей: 0 Пользователей и 1 Гость
 


* Новинки раздела Всемирная музыка Lossless


https://i120.fastpic.org/thumb/2022/0925/53/_679fdfb29e9f70033f7e2cdcf9d0b353.jpeg

INSTRUMENTAL TOP SELLERS - Vol. 4

Автор: alexpika
Дата: 25.09.2022
Просмотров: 13
Ответов: 0


https://i120.fastpic.org/thumb/2022/0922/fa/f8879a92da0f486b945514b2981f5bfa.jpeg

Headline – Wenn der weiße Flieder wieder blüht

Автор: alexpika
Дата: 23.09.2022
Просмотров: 49
Ответов: 0


https://i120.fastpic.org/thumb/2022/0906/ce/5f1c035e60a157f256413d969d39c8ce.jpeg

Gerhard Winkler - Musik hat mich verliebt gemacht

Автор: alexpika
Дата: 06.09.2022
Просмотров: 144
Ответов: 0


https://i120.fastpic.org/thumb/2022/0904/86/22862dd42c547bd6060d64ad91cfa986.jpeg

Gerhard Winkler - Gerhard Winkler

Автор: alexpika
Дата: 04.09.2022
Просмотров: 109
Ответов: 0


https://i120.fastpic.org/thumb/2022/0902/26/df7c320e35d12120cabd4aa4d926d726.jpeg

DEUTSCHE SCHLAGER - NONSTOP PARTY MIX

Автор: alexpika
Дата: 02.09.2022
Просмотров: 138
Ответов: 0